Skip to main content

ted quinn Live at Pappy And Harriet's Pioneertown Palace on 2006-09-08

Audio Preview

etree
ted quinn Live at Pappy And Harriet's Pioneertown Palace on 2006-09-08




01. (crowd noise)
02. pilgrim (quinn/mason)
03. warrior (quinn/mason)
04. international harvester (quinn/mason)
05. (chatter)
06. lord protect my child (bob dylan)
07. (crowd noise/chatter)
08. i dream of sleeping (quinn)
09. (crowd noise)
10. if u do (quinn)
11. hey joe (william moses roberts jr.)
12. (crowd noise)


Collection TedQuinn
Band/Artist ted quinn
Venue Pappy And Harriet's Pioneertown Palace
Location Pioneertown, CA

Source Sony MTL F-96 omni mic (Courtesy Bugs Salcido) on screw hook on ceiling FOB right side > Sony TCD-D100 > DAT @48KHz
Lineage Master DAT > Sony PCM-M1 > Sony RMR-D100 > S/Pdif Coax > Focusrite Saffire > Logic > AIFF > Audacity 1.2.5 (tracking in 1/75 second intervals) > multiple AIFF's > xACT 1.58 > FLAC (level 6)
Taped by TAS aka morst
Transferred by TAS aka morst

Notes

Ted Quinn I Rock n Roll Band:
September 8, 2006
Pappy and Harriet's Pioneertown Palace - indoor stage
Pioneertown CA
2nd Annual Cracker-Camper Van Beethoven Family Reunion Campout
http://www.crackersoul.com/campout/

Source: Sony MTL F-96 omni mic (Courtesy Bugs Salcido) on screw hook on ceiling FOB right side > Sony TCD-D100 > DAT @48KHz

Transfer: Master DAT > Sony PCM-M1 > Sony RMR-D100 > S/Pdif Coax > Focusrite Saffire > Logic > AIFF > Audacity 1.2.5 (tracking in 1/75 second intervals) > multiple AIFF's > xACT 1.58 > FLAC (level 6)

Taper: TAS aka morst

Personnel:
Ted Quinn (little teddy quinn) : vocals, harmonica
(busted wrist prevents me from playing guitar right now!)
Tony Mason: guitar
Kevin Ritchie: guitar
Shawn Mafia (Shawn O'Connor): bass
Sam Willmore: drums (wham bam, thank you sam)
and
Tal Hurley, Sue Bradley: background vocals (apocalypse no)

shntool results:
length expanded size cdr WAVE problems filename
2:27.800 13036004 cxx -- ---xx tq2006-09-08t01.flac
3:14.333 17140244 cxx -- ---xx tq2006-09-08t02.flac
2:14.093 11827076 cxx -- ---xx tq2006-09-08t03.flac
7:29.307 39628892 cxx -- ---xx tq2006-09-08t04.flac
0:37.547 3311660 cxx -- ---xx tq2006-09-08t05.flac
5:51.400 30993524 cxx -- ---xx tq2006-09-08t06.flac
1:12.160 6364556 cxx -- ---xx tq2006-09-08t07.flac
5:11.413 27466700 cxx -- ---xx tq2006-09-08t08.flac
1:41.773 8976452 cxx -- ---xx tq2006-09-08t09.flac
5:32.933 29364764 cxx -- ---xx tq2006-09-08t10.flac
7:25.320 39277268 cxx -- ---xx tq2006-09-08t11.flac
0:40.287 3553328 cxx -- ---xx tq2006-09-08t12.flac
43:38.367 230940468 B (totals for 12 files, 0.4423 overall compression ratio)

-=-=-=-=-=-=-=-=-=-=-=-=-=-=-=-=-=-=-=-=-=-=-=-=-=-=-=-=-=-=-=-=-=-=-
This recording brought to you by the Soundscape Preservation Society
Founded 1991
http://www.iamtypingwithonefinger.com/SPS.html
-=-=-=-=-=-=-=-=-=-=-=-=-=-=-=-=-=-=-=-=-=-=-=-=-=-=-=-=-=-=-=-=-=-=-

comment
Reviews

There are no reviews yet. Be the first one to write a review.
In Collection
ted quinn
In Collection
Live Music Archive
Uploaded by
morst
on 10/1/2006
Views
1,221
Favorites
1
SIMILAR ITEMS (based on metadata)
ted quinn
etree
eye 286
favorite 1
comment 0
Source: DAUD
ted quinn
etree
eye 3,672
favorite 1
comment 1
favoritefavoritefavoritefavoritefavorite ( 1 reviews )
Source: Sony MTL F-96 omni mic (Courtesy Bugs Salcido) on screw hook on ceiling FOB right side > Sony TCD-D100 > DAT @48KHz
ted quinn
etree
eye 250
favorite 1
comment 1
favoritefavoritefavoritefavorite ( 1 reviews )
Source: Neumann KM140's > Beyer MV100 > Sony PCM-D50 > WAVs @48kHz/24bit + Yamaha SBD > Edirol R09 > WAVs @48kHz/24bit
Camper Van Beethoven
by Camper Van Beethoven
etree
eye 7,177
favorite 2
comment 1
favoritefavoritefavoritefavorite ( 1 reviews )
Source: Neumann KM140's ORTF shock-mounted on stand (~10') with DPA windscreens > Beyer MV100 > Sony PCM-M1 > DAT @48KHz
Cracker
etree
eye 2,489
favorite 1
comment 0
Source: Soundcraft 400b mixing console "Studio Out" > Edirol R09 > .WAV file
Rojer Arnold Band
by Rojer Arnold Band
etree
eye 11,943
favorite 1
comment 1
favoritefavoritefavoritefavorite ( 1 reviews )
Source: Sony MTL F-96 omni mic (Courtesy Bugs Salcido) on screw hook on ceiling FOB right side > Sony TCD-D100 > DAT @48KHz
Hackensaw Boys
by Hackensaw Boys
etree
eye 2,010
favorite 1
comment 1
favoritefavoritefavoritefavorite ( 1 reviews )
Source: Neumann KM140's > Beyer MV100 > Sony PCM-M1 > DAT master
Dark Meat
etree
eye 3,194
favorite 1
comment 1
favoritefavoritefavoritefavoritefavorite ( 1 reviews )
Source: Soundcraft 400B mixing console > Edirol R09 > .WAV
Rojer Arnold Band
by Rojer Arnold Band
etree
eye 21,017
favorite 1
comment 0
Source: Sony MTL F-96 omni mic (Courtesy Bugs Salcido) on screw hook on ceiling FOB right side > Sony TCD-D100 > DAT @48KHz
Cracker
etree
eye 3,864
favorite 2
comment 1
favoritefavoritefavoritefavoritefavorite ( 1 reviews )
Source: SBD + Audience Matrix